#TITLE:The best damn thing;
#SUBTITLE:;
#ARTIST:Avril Lavigne;
#TITLETRANSLIT:;
#SUBTITLETRANSLIT:;
#ARTISTTRANSLIT:;
#CREDIT:;
#BANNER:TheBestDawnThing_logo.jpg;
#BACKGROUND:TheBestDawnThing_bg.jpg;
#LYRICSPATH:;
#CDTITLE:Lan.png;
#MUSIC:The best damn thing.mp3;
#OFFSET:0.240;
#SAMPLESTART:100.000;
#SAMPLELENGTH:12.000;
#SELECTABLE:YES;
#BPMS:0.000=165.000;
#STOPS:;
#BGCHANGES:;
// cache tags:
#FIRSTBEAT:8.000;
#LASTBEAT:379.000;
#SONGFILENAME:Songs/SDO pack 4/The best damn thing/The best damn thing.sm;
#HASMUSIC:1;
#HASBANNER:1;
#MUSICLENGTH:138.350;
// end cache tags

//---------------dance-single - sky----------------
#NOTES:
     dance-single:
     sky:
     Hard:
     10:
     1.000,1.000,1.000,0.022,0.481,739.000,312.000,3.000,0.000,1.000:

0000
0000
0000
0000
,
0000
0000
0000
0000
,
1000
0100
0011
0000
1000
0110
0000
1100
,
0010
0000
1001
0000
0100
1010
0000
1000
,
0101
0000
0110
0000
0100
1001
0000
1100
,
0010
0000
0011
0000
1000
0110
0000
0011
,
0100
0010
1100
0000
0010
0101
0000
0110
,
1000
0000
0101
0000
0100
0011
0000
1001
,
0100
0000
1100
0000
0001
0110
0000
0011
,
0100
0000
1001
0000
0100
1010
0000
0101
,
0010
0001
1100
0000
0011
0110
0000
1001
,
1100
0000
1001
0000
1010
0101
0000
0011
,
1100
0000
0110
0000
0101
0110
0000
1010
,
1100
0000
0011
0000
0110
1100
0000
1001
,
0011
0110
1100
0000
0101
0011
0000
1010
,
0110
0000
1001
0000
1100
0101
0000
1010
,
0011
0000
1001
0000
0110
1010
0000
0011
,
0110
0000
1001
0000
1100
0011
0000
1100
,
0011
1000
0100
0010
1001
0000
0000
0000
0101
0000
0010
0000
0001
0000
0100
0000
,
1001
0000
0101
0000
1001
0010
0001
0100
,
0011
0000
0101
0000
1001
0100
0001
1000
,
0011
0000
0011
0000
1001
0100
0001
0010
,
0101
0000
0011
0000
1001
0100
0001
0100
,
0011
0000
1001
0000
0011
1000
0001
0100
,
1001
0000
1100
0110
0011
1001
1010
0101
,
1100
0110
0011
1001
1010
0101
1000
1000
,
1100
0000
0110
0011
0010
1000
1010
1100
,
0001
1000
0110
1001
0100
0010
1100
0101
,
1000
0110
0001
0000
0010
0000
1100
0000
0001
0000
1000
0000
0011
0000
0101
0000
,
0001
1000
0110
1001
0100
0010
1100
0110
,
0001
1100
0010
0000
1000
0000
0011
0000
0010
0000
0100
0000
0011
0000
1100
0000
,
0010
0001
0110
1010
0001
1000
0110
0101
,
0100
0011
1000
0000
0010
0000
1100
0000
0001
0000
1000
0000
0110
0000
1001
0000
,
0100
0000
0010
0000
1001
0000
1010
0000
0001
0000
0100
0000
0011
0000
0001
0010
,
0100
1000
0100
0000
0001
0010
1000
0100
0001
0010
1000
0100
0001
0010
1000
0100
,
0001
0010
1000
0100
1000
0100
0001
0010
1000
0100
0001
0010
1000
0100
0001
0010
,
1000
0100
0001
0010
1000
0001
0100
0010
1000
0001
0100
0010
1000
0001
0100
0010
,
1000
0001
0100
0010
0001
1000
0010
0100
0001
1000
0010
0100
0001
1000
0010
0100
,
0001
1000
0010
0100
1000
0010
0001
0100
1000
0010
0001
0100
1000
0010
0001
0100
,
1000
0010
0001
0100
0001
0100
1000
0010
0001
0100
1000
0010
0001
0100
1000
0010
,
0001
0100
1000
0010
0100
0001
0010
1000
0100
0001
0010
1000
0100
0001
0010
1000
,
0100
0001
0010
0000
2000
0000
0000
0000
0000
0000
0000
0000
0000
0000
0000
0000
,
3001
0000
0110
0000
1000
0110
0000
0001
,
0010
0000
1000
0000
0001
0100
0000
1000
,
0011
0110
1100
0000
0100
0010
0000
1000
,
0001
0000
0100
0000
0001
0010
0000
0100
,
0011
0110
1100
0000
0011
0110
0000
1001
,
1100
0000
1001
0000
1010
0101
0000
0011
,
1100
0000
0110
0000
0101
0110
0000
1010
,
1100
0000
0011
0000
0110
1100
0000
1001
,
0011
0110
1100
0000
0101
0011
0000
1010
,
0110
0000
1001
0000
1100
0101
0000
1010
,
0011
0000
1001
0000
0110
1010
0000
0011
,
0110
0000
1001
0000
1100
0011
0000
1100
,
0011
1000
0100
0010
1001
0000
0000
0000
0101
0000
0010
0000
0001
0000
0100
0000
,
1001
0000
0101
0000
1001
0010
0001
0100
,
0011
0000
0101
0000
1001
0100
0001
1000
,
0011
0000
0011
0000
1001
0100
0001
0010
,
0101
0000
0011
0000
1001
0100
0001
0100
,
0011
0000
1001
0000
0011
1000
0001
0100
,
1001
0000
1100
0110
0011
1001
1010
0101
,
1100
0110
0011
1001
1010
0101
1000
1000
,
1100
0000
0110
0011
0010
1000
1010
1100
,
0001
1000
0110
1001
0100
0010
1100
0101
,
1000
0110
0001
0000
0010
0000
1100
0000
0001
0000
1000
0000
0011
0000
0101
0000
,
0001
1000
0110
1001
0100
0010
1100
0110
,
0001
1100
0010
0000
1000
0000
0011
0000
0010
0000
0100
0000
0011
0000
1100
0000
,
0010
0001
0110
1010
0001
1000
0110
0101
,
0100
0011
1000
0000
0010
0000
1100
0000
0001
0000
1000
0000
0110
0000
1001
0000
,
0100
0000
0010
0000
1001
0000
1000
0100
0010
0001
0100
0000
0000
1000
0001
0010
,
0100
1000
0100
0000
0001
0010
1000
0100
0001
0010
1000
0100
0001
0010
1000
0100
,
0001
0010
1000
0100
1000
0100
0001
0010
1000
0100
0001
0010
1000
0100
0001
0010
,
1000
0100
0001
0010
1000
0001
0100
0010
1000
0001
0100
0010
1000
0001
0100
0010
,
1000
0001
0100
0010
0001
1000
0010
0100
0001
1000
0010
0100
0001
1000
0010
0100
,
0001
1000
0010
0100
1000
0010
0001
0100
1000
0010
0001
0100
1000
0010
0001
0100
,
1000
0010
0001
0100
0001
0100
1000
0010
0001
0100
1000
0010
0001
0100
1000
0010
,
0001
0100
1000
0010
0100
0001
0010
1000
0100
0001
0010
1000
0100
0001
0010
1000
,
0100
0001
0010
0000
2000
0000
0000
0000
0000
0000
0000
0000
0000
0000
0000
0000
,
3001
0000
0110
0000
1000
0110
0000
0001
,
0010
0000
1000
0000
0001
0100
0000
1000
,
0011
0110
1100
0000
0100
0010
0000
1000
,
0001
0000
0100
0000
0001
0010
0000
0100
,
0011
0110
1100
0000
0100
0001
0000
0010
,
0100
0000
1000
0000
0001
0100
0000
0010
,
1001
0110
1001
0000
0100
0010
0000
1000
,
0001
0000
0000
0000
1100
0000
0011
0000
1100
0000
0011
0000
1100
0000
0001
0010
,
0100
1000
0100
0010
1101
0000
1100
0000
1100
0000
1100
0000
0011
0000
0011
0000
,
0011
0011
0110
0110
0110
0110
1010
1010
,
1010
1010
0101
0101
0101
0101
1001
1001
,
1001
1001
1100
0011
1100
0011
1100
0011
,
1100
0011
0110
1010
0110
1010
0110
1010
,
0110
1010
0101
1001
0101
1001
0101
1001
,
0101
1001
1100
0011
0110
1010
0101
1001
,
1100
0000
0011
0000
0110
0000
1010
0000
0101
0000
1001
0000
0110
0000
1000
0100
,
0010
0001
0010
0100
2000
0000
0000
0000
0000
0000
0000
0000
3000
0000
0000
0000
;
